  0
SECTION
  2
HEADER
  9
$ACADVER
  1
AC1009
  9
$INSBASE
 10
0.0
 20
0.0
 30
0.0
  9
$EXTMIN
 10
100.0
 20
100.0
 30
-489.89999999999998
  9
$EXTMAX
 10
8300.0
 20
5840.0
 30
0.00000001
  9
$LIMMIN
 10
0.0
 20
0.0
  9
$LIMMAX
 10
8400.0
 20
5940.0
  9
$ORTHOMODE
 70
     0
  9
$REGENMODE
 70
     1
  9
$FILLMODE
 70
     1
  9
$QTEXTMODE
 70
     0
  9
$MIRRTEXT
 70
     1
  9
$DRAGMODE
 70
     2
  9
$LTSCALE
 40
20.0
  9
$OSMODE
 70
    55
  9
$ATTMODE
 70
     1
  9
$TEXTSIZE
 40
127.0
  9
$TRACEWID
 40
1.0
  9
$TEXTSTYLE
  7
STANDARD
  9
$CLAYER
  8
0
  9
$CELTYPE
  6
BYLAYER
  9
$CECOLOR
 62
   256
  9
$DIMSCALE
 40
1.0
  9
$DIMASZ
 40
119.88800000000001
  9
$DIMEXO
 40
19.812000000000001
  9
$DIMDLI
 40
3.75
  9
$DIMRND
 40
0.0
  9
$DIMDLE
 40
0.0
  9
$DIMEXE
 40
19.812000000000001
  9
$DIMTP
 40
0.0
  9
$DIMTM
 40
0.0
  9
$DIMTXT
 40
127.0
  9
$DIMCEN
 40
2.5
  9
$DIMTSZ
 40
0.0
  9
$DIMTOL
 70
     0
  9
$DIMLIM
 70
     0
  9
$DIMTIH
 70
     1
  9
$DIMTOH
 70
     1
  9
$DIMSE1
 70
     0
  9
$DIMSE2
 70
     0
  9
$DIMTAD
 70
     1
  9
$DIMZIN
 70
     0
  9
$DIMBLK
  1

  9
$DIMASO
 70
     1
  9
$DIMSHO
 70
     1
  9
$DIMPOST
  1

  9
$DIMAPOST
  1

  9
$DIMALT
 70
     0
  9
$DIMALTD
 70
     3
  9
$DIMALTF
 40
0.0393700787401575
  9
$DIMLFAC
 40
1.0
  9
$DIMTOFL
 70
     1
  9
$DIMTVP
 40
0.0
  9
$DIMTIX
 70
     0
  9
$DIMSOXD
 70
     0
  9
$DIMSAH
 70
     0
  9
$DIMBLK1
  1

  9
$DIMBLK2
  1

  9
$DIMSTYLE
  2
ISO-25
  9
$DIMCLRD
 70
     0
  9
$DIMCLRE
 70
     0
  9
$DIMCLRT
 70
     0
  9
$DIMTFAC
 40
1.0
  9
$DIMGAP
 40
30.48
  9
$LUNITS
 70
     2
  9
$LUPREC
 70
     2
  9
$SKETCHINC
 40
1.0
  9
$FILLETRAD
 40
10.0
  9
$AUNITS
 70
     0
  9
$AUPREC
 70
     2
  9
$MENU
  1
.
  9
$ELEVATION
 40
0.0
  9
$PELEVATION
 40
0.0
  9
$THICKNESS
 40
0.0
  9
$LIMCHECK
 70
     0
  9
$BLIPMODE
 70
     0
  9
$CHAMFERA
 40
0.0
  9
$CHAMFERB
 40
0.0
  9
$SKPOLY
 70
     0
  9
$TDCREATE
 40
2456777.2671100921
  9
$TDUPDATE
 40
2456777.3627222339
  9
$TDINDWG
 40
0.0005238426
  9
$TDUSRTIMER
 40
0.0005238426
  9
$USRTIMER
 70
     1
  9
$ANGBASE
 50
0.0
  9
$ANGDIR
 70
     0
  9
$PDMODE
 70
     0
  9
$PDSIZE
 40
-1.0
  9
$PLINEWID
 40
0.0
  9
$COORDS
 70
     1
  9
$SPLFRAME
 70
     0
  9
$SPLINETYPE
 70
     6
  9
$SPLINESEGS
 70
     8
  9
$ATTDIA
 70
     0
  9
$ATTREQ
 70
     1
  9
$HANDLING
 70
     1
  9
$HANDSEED
  5
31A
  9
$SURFTAB1
 70
     6
  9
$SURFTAB2
 70
     6
  9
$SURFTYPE
 70
     6
  9
$SURFU
 70
     6
  9
$SURFV
 70
     6
  9
$UCSNAME
  2

  9
$UCSORG
 10
0.0
 20
0.0
 30
0.0
  9
$UCSXDIR
 10
1.0
 20
0.0
 30
0.0
  9
$UCSYDIR
 10
0.0
 20
1.0
 30
0.0
  9
$PUCSNAME
  2

  9
$PUCSORG
 10
0.0
 20
0.0
 30
0.0
  9
$PUCSXDIR
 10
1.0
 20
0.0
 30
0.0
  9
$PUCSYDIR
 10
0.0
 20
1.0
 30
0.0
  9
$USERI1
 70
     0
  9
$USERI2
 70
     0
  9
$USERI3
 70
     0
  9
$USERI4
 70
     0
  9
$USERI5
 70
     0
  9
$USERR1
 40
0.0
  9
$USERR2
 40
0.0
  9
$USERR3
 40
0.0
  9
$USERR4
 40
0.0
  9
$USERR5
 40
0.0
  9
$WORLDVIEW
 70
     0
  9
$SHADEDGE
 70
     3
  9
$SHADEDIF
 70
    70
  9
$TILEMODE
 70
     1
  9
$MAXACTVP
 70
    64
  9
$PLIMCHECK
 70
     0
  9
$PEXTMIN
 10
1.0000000000000000E+020
 20
1.0000000000000000E+020
 30
1.0000000000000000E+020
  9
$PEXTMAX
 10
-1.0000000000000000E+020
 20
-1.0000000000000000E+020
 30
-1.0000000000000000E+020
  9
$PLIMMIN
 10
0.0
 20
0.0
  9
$PLIMMAX
 10
420.0
 20
297.0
  9
$UNITMODE
 70
     0
  9
$VISRETAIN
 70
     1
  9
$PLINEGEN
 70
     0
  9
$PSLTSCALE
 70
     1
  0
ENDSEC
  0
SECTION
  2
TABLES
  0
TABLE
  2
VPORT
 70
     1
  0
VPORT
  2
*ACTIVE
 70
     0
 10
0.0
 20
0.0
 11
1.0
 21
1.0
 12
4362.8632561459717
 22
3346.1141095934299
 13
0.0
 23
0.0
 14
10.0
 24
10.0
 15
10.0
 25
10.0
 16
0.0
 26
0.0
 36
1.0
 17
0.0
 27
0.0
 37
0.0
 40
5178.7306701157231
 41
2.2000000000000002
 42
50.0
 43
0.0
 44
0.0
 50
0.0
 51
0.0
 71
     0
 72
  2000
 73
     1
 74
     3
 75
     0
 76
     0
 77
     0
 78
     0
  0
ENDTAB
  0
TABLE
  2
LTYPE
 70
     6
  0
LTYPE
  2
CONTINUOUS
 70
     0
  3
Solid line
 72
    65
 73
     0
 40
0.0
  0
LTYPE
  2
HIDDEN
 70
     0
  3
Hidden __ __ __ __ __ __ __ __ __ __ __ __ __ _
 72
    65
 73
     2
 40
1.905
 49
1.27
 49
-0.635
  0
LTYPE
  2
PHANTOM
 70
     0
  3
Phantom ______  __  __  ______  __  __  ______
 72
    65
 73
     6
 40
12.699999999999999
 49
6.3499999999999988
 49
-1.27
 49
1.27
 49
-1.27
 49
1.27
 49
-1.27
  0
LTYPE
  2
CENTER
 70
     0
  3
Center ____ _ ____ _ ____ _ ____ _ ____ _ ____
 72
    65
 73
     4
 40
10.16
 49
6.3499999999999988
 49
-1.27
 49
1.27
 49
-1.27
  0
LTYPE
  2
CENTERX2
 70
     0
  3
Center (2x) ________  __  ________  __  _____
 72
    65
 73
     4
 40
20.32
 49
12.699999999999999
 49
-2.54
 49
2.54
 49
-2.54
  0
LTYPE
  2
DOT2
 70
     0
  3
Dot (.5x) .....................................
 72
    65
 73
     2
 40
0.635
 49
0.0
 49
-0.635
  0
ENDTAB
  0
TABLE
  2
LAYER
 70
     2
  0
LAYER
  2
0
 70
     0
 62
     7
  6
CONTINUOUS
  0
LAYER
  2
FORMAT
 70
     0
 62
     7
  6
CONTINUOUS
  0
ENDTAB
  0
TABLE
  2
STYLE
 70
     2
  0
STYLE
  2
STANDARD
 70
     0
 40
0.0
 41
1.0
 50
0.0
 71
     0
 42
127.0
  3
txt
  4

  0
STYLE
  2
ANNOTATIVE
 70
     0
 40
0.0
 41
1.0
 50
0.0
 71
     0
 42
127.0
  3
txt
  4

  0
ENDTAB
  0
TABLE
  2
VIEW
 70
     0
  0
ENDTAB
  0
TABLE
  2
UCS
 70
     0
  0
ENDTAB
  0
TABLE
  2
APPID
 70
     4
  0
APPID
  2
ACAD
 70
     0
  0
APPID
  2
ACADANNOTATIVE
 70
     0
  0
APPID
  2
ACAD_MLEADERVER
 70
     0
  0
APPID
  2
ACAD_DSTYLE_DIMRADIAL_EXTENSION
 70
     0
  0
ENDTAB
  0
TABLE
  2
DIMSTYLE
 70
     2
  0
DIMSTYLE
  2
ISO-25
 70
     0
  3

  4

  5

  6

  7

 40
1.0
 41
2.5
 42
0.625
 43
3.75
 44
1.25
 45
0.0
 46
0.0
 47
0.0
 48
0.0
140
2.5
141
2.5
142
0.0
143
0.03937007874016
144
1.0
145
0.0
146
1.0
147
0.625
 71
     0
 72
     0
 73
     0
 74
     0
 75
     0
 76
     0
 77
     1
 78
     8
170
     0
171
     3
172
     1
173
     0
174
     0
175
     0
176
     0
177
     0
178
     0
  0
DIMSTYLE
  2
SLDDIMSTYLE0
 70
     0
  3

  4

  5

  6
CLOSED
  7
CLOSED
 40
1.0
 41
119.88800000000001
 42
0.0625
 43
0.38
 44
0.0
 45
0.000000001
 46
0.0
 47
0.0
 48
0.0
140
127.0
141
0.09
142
0.0
143
25.399999999999999
144
1.0
145
0.0
146
1.0
147
31.75
 71
     0
 72
     0
 73
     0
 74
     0
 75
     0
 76
     0
 77
     1
 78
    12
170
     0
171
     2
172
     0
173
     1
174
     0
175
     0
176
     0
177
     0
178
     0
  0
ENDTAB
  0
ENDSEC
  0
SECTION
  2
BLOCKS
  0
BLOCK
  8
0
  2
$MODEL_SPACE
 70
     0
 10
0.0
 20
0.0
 30
0.0
  3
$MODEL_SPACE
  1

  0
ENDBLK
  5
25D
  8
0
  0
BLOCK
 67
     1
  8
0
  2
$PAPER_SPACE
 70
     0
 10
0.0
 20
0.0
 30
0.0
  3
$PAPER_SPACE
  1

  0
ENDBLK
  5
25B
 67
     1
  8
0
  0
BLOCK
  8
0
  2
*PAPER_SPACE0
 70
     0
 10
0.0
 20
0.0
 30
0.0
  3
*PAPER_SPACE0
  1

  0
ENDBLK
  5
25
  8
0
  0
BLOCK
  8
0
  2
SW_NOTE_0
 70
     0
 10
0.0
 20
0.0
 30
0.0
  3
SW_NOTE_0
  1

  0
TEXT
  5
9D
  8
FORMAT
 62
     0
 10
0.0000000000000006
 20
10.58333333333333
 30
0.0
 40
31.749999999999989
  1
28. juni 2013 
 41
0.625
 11
0.0
 21
0.0
 31
0.0
 73
     1
  0
TEXT
  5
9E
  8
FORMAT
 62
     0
 10
0.0000000000000006
 20
-31.74999948839347
 30
0.0
 40
31.749999999999989
  1
14:20:32
 41
0.7
 11
0.0
 21
-42.333332821726792
 31
0.0
 73
     1
  0
ENDBLK
  5
9C
  8
0
  0
BLOCK
  8
0
  2
SW_NOTE_1
 70
     0
 10
0.0
 20
0.0
 30
0.0
  3
SW_NOTE_1
  1

  0
TEXT
  5
AD
  8
FORMAT
 62
     0
 10
0.0000000000000011
 20
17.638888888888879
 30
0.0
 40
52.916666666666657
  1
Grønnvoldveien 290, 3830 Ulefoss
 41
0.6671875
 11
0.0
 21
0.0
 31
0.0
 73
     1
  0
TEXT
  5
AE
  8
FORMAT
 62
     0
 10
0.0000000000000011
 20
-52.916665813989113
 30
0.0
 40
52.916666666666657
  1
Tel:  +47 35 94 65 65   Postmaster@sove.no
 41
0.625
 11
0.0
 21
-70.555554702877984
 31
0.0
 73
     1
  0
TEXT
  5
AF
  8
FORMAT
 62
     0
 10
0.0000000000000011
 20
-123.4722205168671
 30
0.0
 40
52.916666666666657
  1
Fax: +47 35 94 65 60   www.sove.no
 41
0.6176470588235296
 11
0.0
 21
-141.111109405756
 31
0.0
 73
     1
  0
ENDBLK
  5
AC
  8
0
  0
BLOCK
  8
0
  2
SW_NOTE_2
 70
     0
 10
0.0
 20
0.0
 30
0.0
  3
SW_NOTE_2
  1

  0
TEXT
  5
BA
  8
FORMAT
 62
     0
 10
0.0000000000000011
 20
17.638888888888879
 30
0.0
 40
52.916666666666657
  1
UNLESS OTHERWISE SPECIFIED:
 41
0.6740740740740741
 11
0.0
 21
0.0
 31
0.0
 73
     1
  0
TEXT
  5
BB
  8
FORMAT
 62
     0
 10
0.0000000000000011
 20
-52.916665813989113
 30
0.0
 40
52.916666666666657
  1
DIMENSIONS ARE IN MILLIMETERS
 41
0.6637931034482759
 11
0.0
 21
-70.555554702877984
 31
0.0
 73
     1
  0
ENDBLK
  5
B9
  8
0
  0
BLOCK
  8
0
  2
_CLOSED
 70
     0
 10
0.0
 20
0.0
 30
0.0
  3
_CLOSED
  1

  0
LINE
  5
12B
  8
0
  6
BYBLOCK
 62
     0
 10
-1.0
 20
0.166667
 30
0.0
 11
0.0
 21
0.0
 31
0.0
  0
LINE
  5
12C
  8
0
  6
BYBLOCK
 62
     0
 10
0.0
 20
0.0
 30
0.0
 11
-1.0
 21
-0.166667
 31
0.0
  0
LINE
  5
12D
  8
0
  6
BYBLOCK
 62
     0
 10
-1.0
 20
0.166667
 30
0.0
 11
-1.0
 21
-0.166667
 31
0.0
  0
LINE
  5
12E
  8
0
  6
BYBLOCK
 62
     0
 10
0.0
 20
0.0
 30
0.0
 11
-1.0
 21
0.0
 31
0.0
  0
ENDBLK
  5
12A
  8
0
  0
BLOCK
  8
0
  2
_D
 70
     0
 10
0.0
 20
0.0
 30
0.0
  3
_D
  1

  0
INSERT
  5
132
  8
FORMAT
  2
_CLOSED
 10
4631.6715067844107
 20
5128.8356099015273
 30
-489.89999999999998
 41
119.88800000000001
 42
119.88800000000001
 50
90.000000000000398
  0
INSERT
  5
133
  8
FORMAT
  2
_CLOSED
 10
4631.6715067844107
 20
1678.8356099015259
 30
-489.89999999999998
 41
119.88800000000001
 42
119.88800000000001
 50
270.0000000000004
  0
LINE
  5
134
  8
FORMAT
 10
2504.7071229672151
 20
5128.8356099015273
 30
0.0
 11
4651.4835067844106
 21
5128.8356099015273
 31
0.0
  0
LINE
  5
135
  8
FORMAT
 10
2504.7071229672151
 20
1678.8356099015259
 30
0.0
 11
4651.4835067844106
 21
1678.8356099015259
 31
0.0
  0
LINE
  5
136
  8
FORMAT
 10
4631.6715067844107
 20
5128.8356099015273
 30
0.0
 11
4631.6715067844107
 21
1678.8356099015259
 31
0.0
  0
TEXT
  5
137
  8
FORMAT
 10
4589.3381757793859
 20
2929.760837692882
 30
-489.89999999999708
 40
127.0
  1
%%c
 50
90.000000000000398
 41
0.7
 11
4631.6715091127189
 21
2929.760837692882
 31
-489.89999999999708
 73
     1
  0
TEXT
  5
138
  8
FORMAT
 10
4587.3978979086396
 20
3121.292708207036
 30
-489.89999999999708
 40
127.0
  1
3450
 50
90.000000000000398
 41
0.7
 11
4629.7312312419726
 21
3121.292708207036
 31
-489.89999999999708
 73
     1
  0
ENDBLK
  5
131
  8
0
  0
ENDSEC
  0
SECTION
  2
ENTITIES
  0
POLYLINE
  5
C4
  8
0
  6
CONTINUOUS
 62
     7
 66
     1
 10
0.0
 20
0.0
 30
0.0
 70
   128
  0
VERTEX
  5
271
  8
0
  6
CONTINUOUS
 62
     7
 10
2462.6895336280782
 20
3388.120869520882
 30
0.0
  0
VERTEX
  5
272
  8
0
  6
CONTINUOUS
 62
     7
 10
2465.2692319671828
 20
3386.7891192173738
 30
0.0
  0
VERTEX
  5
273
  8
0
  6
CONTINUOUS
 62
     7
 10
2467.5189403663589
 20
3385.6277264392161
 30
0.0
  0
VERTEX
  5
274
  8
0
  6
CONTINUOUS
 62
     7
 10
2469.4327039490659
 20
3384.6397589629669
 30
0.0
  0
VERTEX
  5
275
  8
0
  6
CONTINUOUS
 62
     7
 10
2471.0054628397538
 20
3383.8278338050632
 30
0.0
  0
VERTEX
  5
276
  8
0
  6
CONTINUOUS
 62
     7
 10
2472.2330558891608
 20
3383.1940985953602
 30
0.0
  0
VERTEX
  5
277
  8
0
  6
CONTINUOUS
 62
     7
 10
2473.1122346441471
 20
3382.7402297144909
 30
0.0
  0
VERTEX
  5
278
  8
0
  6
CONTINUOUS
 62
     7
 10
2473.6406735922419
 20
3382.4674267059349
 30
0.0
  0
VERTEX
  5
279
  8
0
  6
CONTINUOUS
 62
     7
 10
2473.8169757495839
 20
3382.3764122760081
 30
0.0
  0
SEQEND
  5
27A
  8
0
  6
CONTINUOUS
 62
     7
  0
POLYLINE
  5
C5
  8
0
  6
CONTINUOUS
 62
     7
 66
     1
 10
0.0
 20
0.0
 30
0.0
 70
   128
  0
VERTEX
  5
27B
  8
0
  6
CONTINUOUS
 62
     7
 10
2495.973270184847
 20
3425.2948075270442
 30
0.0
  0
VERTEX
  5
27C
  8
0
  6
CONTINUOUS
 62
     7
 10
2495.7969680275041
 20
3425.3858219569711
 30
0.0
  0
VERTEX
  5
27D
  8
0
  6
CONTINUOUS
 62
     7
 10
2495.2685290794088
 20
3425.658624965527
 30
0.0
  0
VERTEX
  5
27E
  8
0
  6
CONTINUOUS
 62
     7
 10
2494.3893493931009
 20
3426.112493846395
 30
0.0
  0
VERTEX
  5
27F
  8
0
  6
CONTINUOUS
 62
     7
 10
2493.161757275017
 20
3426.7462290560989
 30
0.0
  0
VERTEX
  5
280
  8
0
  6
CONTINUOUS
 62
     7
 10
2491.588998384329
 20
3427.558154214003
 30
0.0
  0
VERTEX
  5
281
  8
0
  6
CONTINUOUS
 62
     7
 10
2489.6752338703
 20
3428.5461198276071
 30
0.0
  0
VERTEX
  5
282
  8
0
  6
CONTINUOUS
 62
     7
 10
2487.4255266352761
 20
3429.7075144684109
 30
0.0
  0
VERTEX
  5
283
  8
0
  6
CONTINUOUS
 62
     7
 10
2484.8458283325508
 20
3431.0392647719168
 30
0.0
  0
SEQEND
  5
284
  8
0
  6
CONTINUOUS
 62
     7
  0
LINE
  5
C6
  8
0
  6
CONTINUOUS
 62
     7
 10
2399.729234896155
 20
3420.6236455327071
 30
0.0
 11
2462.6895336280782
 21
3388.120869520882
 31
0.0
  0
LINE
  5
C7
  8
0
  6
CONTINUOUS
 62
     7
 10
2484.8458283325508
 20
3431.0392647719168
 30
0.0
 11
2421.8855256061279
 21
3463.5420407837419
 31
0.0
  0
ARC
  5
C8
  8
0
  6
CONTINUOUS
 62
     7
 10
2399.6799374578341
 20
3447.8272997564241
 30
0.0
 40
24.14999999999997
 50
62.69529995822122
 51
242.69529995822299
  0
POLYLINE
  5
C9
  8
0
  6
CONTINUOUS
 62
     7
 66
     1
 10
0.0
 20
0.0
 30
0.0
 70
   128
  0
VERTEX
  5
285
  8
0
  6
CONTINUOUS
 62
     7
 10
2421.8855256061279
 20
3463.5420407837419
 30
0.0
  0
VERTEX
  5
286
  8
0
  6
CONTINUOUS
 62
     7
 10
2419.3058291296679
 20
3464.8737910872478
 30
0.0
  0
VERTEX
  5
287
  8
0
  6
CONTINUOUS
 62
     7
 10
2417.0561188678462
 20
3466.0351838654069
 30
0.0
  0
VERTEX
  5
288
  8
0
  6
CONTINUOUS
 62
     7
 10
2415.1423552851402
 20
3467.02314947901
 30
0.0
  0
VERTEX
  5
289
  8
0
  6
CONTINUOUS
 62
     7
 10
2413.5695973257739
 20
3467.8350764995598
 30
0.0
  0
VERTEX
  5
28A
  8
0
  6
CONTINUOUS
 62
     7
 10
2412.3420024137222
 20
3468.468807983973
 30
0.0
  0
VERTEX
  5
28B
  8
0
  6
CONTINUOUS
 62
     7
 10
2411.4628264527041
 20
3468.9226824527768
 30
0.0
  0
VERTEX
  5
28C
  8
0
  6
CONTINUOUS
 62
     7
 10
2410.9343865732872
 20
3469.1954854613332
 30
0.0
  0
VERTEX
  5
28D
  8
0
  6
CONTINUOUS
 62
     7
 10
2410.7580845597081
 20
3469.2864972434982
 30
0.0
  0
SEQEND
  5
28E
  8
0
  6
CONTINUOUS
 62
     7
  0
POLYLINE
  5
CA
  8
0
  6
CONTINUOUS
 62
     7
 66
     1
 10
0.0
 20
0.0
 30
0.0
 70
   128
  0
VERTEX
  5
28F
  8
0
  6
CONTINUOUS
 62
     7
 10
2388.60179035596
 20
3426.3681022693499
 30
0.0
  0
VERTEX
  5
290
  8
0
  6
CONTINUOUS
 62
     7
 10
2388.7780958633139
 20
3426.2770883476519
 30
0.0
  0
VERTEX
  5
291
  8
0
  6
CONTINUOUS
 62
     7
 10
2389.3065282921511
 20
3426.004285339096
 30
0.0
  0
VERTEX
  5
292
  8
0
  6
CONTINUOUS
 62
     7
 10
2390.1857117037489
 20
3425.5504145955829
 30
0.0
  0
VERTEX
  5
293
  8
0
  6
CONTINUOUS
 62
     7
 10
2391.413306615802
 20
3424.9166793858799
 30
0.0
  0
VERTEX
  5
294
  8
0
  6
CONTINUOUS
 62
     7
 10
2392.9860645751669
 20
3424.10475609062
 30
0.0
  0
VERTEX
  5
295
  8
0
  6
CONTINUOUS
 62
     7
 10
2394.8998281578738
 20
3423.1167886143712
 30
0.0
  0
VERTEX
  5
296
  8
0
  6
CONTINUOUS
 62
     7
 10
2397.1495309691149
 20
3421.955395836213
 30
0.0
  0
VERTEX
  5
297
  8
0
  6
CONTINUOUS
 62
     7
 10
2399.729234896155
 20
3420.6236455327071
 30
0.0
  0
SEQEND
  5
298
  8
0
  6
CONTINUOUS
 62
     7
  0
CIRCLE
  5
CB
  8
0
  6
CONTINUOUS
 62
     7
 10
2484.8951229672161
 20
3403.8356099015232
 30
0.0
 40
224.99999999999989
  0
CIRCLE
  5
CC
  8
0
  6
CONTINUOUS
 62
     7
 10
2484.8951229672148
 20
3403.8356099015259
 30
0.0
 40
1725.0
  0
CIRCLE
  5
CD
  8
0
  6
CONTINUOUS
 62
     7
 10
2484.8951229672148
 20
3403.8356099015259
 30
0.0
 40
24.0
  0
CIRCLE
  5
CE
  8
0
  6
CONTINUOUS
 62
     7
 10
2484.8951229672148
 20
3403.8356099015259
 30
0.0
 40
22.0
  0
CIRCLE
  5
CF
  8
0
  6
CONTINUOUS
 62
     7
 10
2484.8951229672161
 20
3403.8356099015232
 30
0.0
 40
24.149999999999761
  0
POLYLINE
  5
D0
  8
0
  6
CONTINUOUS
 62
     7
 66
     1
 10
0.0
 20
0.0
 30
0.0
 70
   128
  0
VERTEX
  5
299
  8
0
  6
CONTINUOUS
 62
     7
 10
2454.1000014017541
 20
3419.7333570307292
 30
0.0
  0
VERTEX
  5
29A
  8
0
  6
CONTINUOUS
 62
     7
 10
2455.578723720761
 20
3422.245947990396
 30
0.0
  0
VERTEX
  5
29B
  8
0
  6
CONTINUOUS
 62
     7
 10
2457.3226829837281
 20
3424.5738427823571
 30
0.0
  0
VERTEX
  5
29C
  8
0
  6
CONTINUOUS
 62
     7
 10
2459.3064466337878
 20
3426.6830946987652
 30
0.0
  0
VERTEX
  5
29D
  8
0
  6
CONTINUOUS
 62
     7
 10
2461.501087791773
 20
3428.5429440176272
 30
0.0
  0
VERTEX
  5
29E
  8
0
  6
CONTINUOUS
 62
     7
 10
2463.8746024887282
 20
3430.126274350861
 30
0.0
  0
VERTEX
  5
29F
  8
0
  6
CONTINUOUS
 62
     7
 10
2466.3923827777821
 20
3431.4099926239041
 30
0.0
  0
VERTEX
  5
2A0
  8
0
  6
CONTINUOUS
 62
     7
 10
2469.0177103351079
 20
3432.3753829782991
 30
0.0
  0
VERTEX
  5
2A1
  8
0
  6
CONTINUOUS
 62
     7
 10
2471.7123022149522
 20
3433.0083656793622
 30
0.0
  0
VERTEX
  5
2A2
  8
0
  6
CONTINUOUS
 62
     7
 10
2474.4368668492161
 20
3433.2997113203792
 30
0.0
  0
VERTEX
  5
2A3
  8
0
  6
CONTINUOUS
 62
     7
 10
2477.1516735512041
 20
3433.245171207765
 30
0.0
  0
VERTEX
  5
2A4
  8
0
  6
CONTINUOUS
 62
     7
 10
2479.8171336609139
 20
3432.845540690998
 30
0.0
  0
VERTEX
  5
2A5
  8
0
  6
CONTINUOUS
 62
     7
 10
2482.3943793620192
 20
3432.106646124103
 30
0.0
  0
VERTEX
  5
2A6
  8
0
  6
CONTINUOUS
 62
     7
 10
2484.8458283325508
 20
3431.0392647719168
 30
0.0
  0
SEQEND
  5
2A7
  8
0
  6
CONTINUOUS
 62
     7
  0
POLYLINE
  5
D1
  8
0
  6
CONTINUOUS
 62
     7
 66
     1
 10
0.0
 20
0.0
 30
0.0
 70
   128
  0
VERTEX
  5
2A8
  8
0
  6
CONTINUOUS
 62
     7
 10
2462.6895336280782
 20
3388.120869520882
 30
0.0
  0
VERTEX
  5
2A9
  8
0
  6
CONTINUOUS
 62
     7
 10
2460.3996293465812
 20
3389.5011752581381
 30
0.0
  0
VERTEX
  5
2AA
  8
0
  6
CONTINUOUS
 62
     7
 10
2458.3046620558221
 20
3391.1742757743391
 30
0.0
  0
VERTEX
  5
2AB
  8
0
  6
CONTINUOUS
 62
     7
 10
2456.4351791362478
 20
3393.1157750746388
 30
0.0
  0
VERTEX
  5
2AC
  8
0
  6
CONTINUOUS
 62
     7
 10
2454.8184422622639
 20
3395.2973600214509
 30
0.0
  0
VERTEX
  5
2AD
  8
0
  6
CONTINUOUS
 62
     7
 10
2453.478028796168
 20
3397.687219429592
 30
0.0
  0
VERTEX
  5
2AE
  8
0
  6
CONTINUOUS
 62
     7
 10
2452.4334834735109
 20
3400.2505032083191
 30
0.0
  0
VERTEX
  5
2AF
  8
0
  6
CONTINUOUS
 62
     7
 10
2451.7000408689701
 20
3402.949833133554
 30
0.0
  0
VERTEX
  5
2B0
  8
0
  6
CONTINUOUS
 62
     7
 10
2451.2883925656988
 20
3405.7458467984729
 30
0.0
  0
VERTEX
  5
2B1
  8
0
  6
CONTINUOUS
 62
     7
 10
2451.2045437316619
 20
3408.5977718902909
 30
0.0
  0
VERTEX
  5
2B2
  8
0
  6
CONTINUOUS
 62
     7
 10
2451.4497162620742
 20
3411.4640214217989
 30
0.0
  0
VERTEX
  5
2B3
  8
0
  6
CONTINUOUS
 62
     7
 10
2452.0203338782512
 20
3414.3027983343391
 30
0.0
  0
VERTEX
  5
2B4
  8
0
  6
CONTINUOUS
 62
     7
 10
2452.9080780069548
 20
3417.072707202115
 30
0.0
  0
VERTEX
  5
2B5
  8
0
  6
CONTINUOUS
 62
     7
 10
2454.1000014017541
 20
3419.7333570307292
 30
0.0
  0
SEQEND
  5
2B6
  8
0
  6
CONTINUOUS
 62
     7
  0
POLYLINE
  5
D2
  8
0
  6
CONTINUOUS
 62
     7
 66
     1
 10
0.0
 20
0.0
 30
0.0
 70
   128
  0
VERTEX
  5
2B7
  8
0
  6
CONTINUOUS
 62
     7
 10
2484.8458283325508
 20
3431.0392647719168
 30
0.0
  0
VERTEX
  5
2B8
  8
0
  6
CONTINUOUS
 62
     7
 10
2482.3943793620192
 20
3432.106646124103
 30
0.0
  0
VERTEX
  5
2B9
  8
0
  6
CONTINUOUS
 62
     7
 10
2479.8171336609139
 20
3432.845540690998
 30
0.0
  0
VERTEX
  5
2BA
  8
0
  6
CONTINUOUS
 62
     7
 10
2477.1516735512041
 20
3433.245171207765
 30
0.0
  0
VERTEX
  5
2BB
  8
0
  6
CONTINUOUS
 62
     7
 10
2474.4368668492161
 20
3433.2997113203792
 30
0.0
  0
VERTEX
  5
2BC
  8
0
  6
CONTINUOUS
 62
     7
 10
2471.7123022149522
 20
3433.0083656793622
 30
0.0
  0
VERTEX
  5
2BD
  8
0
  6
CONTINUOUS
 62
     7
 10
2469.0177103351079
 20
3432.3753829782991
 30
0.0
  0
VERTEX
  5
2BE
  8
0
  6
CONTINUOUS
 62
     7
 10
2466.3923827777821
 20
3431.4099926239041
 30
0.0
  0
VERTEX
  5
2BF
  8
0
  6
CONTINUOUS
 62
     7
 10
2463.8746024887282
 20
3430.126274350861
 30
0.0
  0
VERTEX
  5
2C0
  8
0
  6
CONTINUOUS
 62
     7
 10
2461.501087791773
 20
3428.5429440176272
 30
0.0
  0
VERTEX
  5
2C1
  8
0
  6
CONTINUOUS
 62
     7
 10
2459.3064466337878
 20
3426.6830946987652
 30
0.0
  0
VERTEX
  5
2C2
  8
0
  6
CONTINUOUS
 62
     7
 10
2457.3226829837281
 20
3424.5738427823571
 30
0.0
  0
VERTEX
  5
2C3
  8
0
  6
CONTINUOUS
 62
     7
 10
2455.578723720761
 20
3422.245947990396
 30
0.0
  0
VERTEX
  5
2C4
  8
0
  6
CONTINUOUS
 62
     7
 10
2454.1000014017541
 20
3419.7333570307292
 30
0.0
  0
VERTEX
  5
2C5
  8
0
  6
CONTINUOUS
 62
     7
 10
2452.9080780069548
 20
3417.072707202115
 30
0.0
  0
VERTEX
  5
2C6
  8
0
  6
CONTINUOUS
 62
     7
 10
2452.0203338782512
 20
3414.3027983343391
 30
0.0
  0
VERTEX
  5
2C7
  8
0
  6
CONTINUOUS
 62
     7
 10
2451.4497162620742
 20
3411.4640214217989
 30
0.0
  0
VERTEX
  5
2C8
  8
0
  6
CONTINUOUS
 62
     7
 10
2451.2045437316619
 20
3408.5977718902909
 30
0.0
  0
VERTEX
  5
2C9
  8
0
  6
CONTINUOUS
 62
     7
 10
2451.2883925656988
 20
3405.7458467984729
 30
0.0
  0
VERTEX
  5
2CA
  8
0
  6
CONTINUOUS
 62
     7
 10
2451.7000408689701
 20
3402.949833133554
 30
0.0
  0
VERTEX
  5
2CB
  8
0
  6
CONTINUOUS
 62
     7
 10
2452.4334834735109
 20
3400.2505032083191
 30
0.0
  0
VERTEX
  5
2CC
  8
0
  6
CONTINUOUS
 62
     7
 10
2453.478028796168
 20
3397.687219429592
 30
0.0
  0
VERTEX
  5
2CD
  8
0
  6
CONTINUOUS
 62
     7
 10
2454.8184422622639
 20
3395.2973600214509
 30
0.0
  0
VERTEX
  5
2CE
  8
0
  6
CONTINUOUS
 62
     7
 10
2456.4351791362478
 20
3393.1157750746388
 30
0.0
  0
VERTEX
  5
2CF
  8
0
  6
CONTINUOUS
 62
     7
 10
2458.3046620558221
 20
3391.1742757743391
 30
0.0
  0
VERTEX
  5
2D0
  8
0
  6
CONTINUOUS
 62
     7
 10
2460.3996293465812
 20
3389.5011752581381
 30
0.0
  0
VERTEX
  5
2D1
  8
0
  6
CONTINUOUS
 62
     7
 10
2462.6895336280782
 20
3388.120869520882
 30
0.0
  0
SEQEND
  5
2D2
  8
0
  6
CONTINUOUS
 62
     7
  0
POLYLINE
  5
D3
  8
0
  6
CONTINUOUS
 62
     7
 66
     1
 10
0.0
 20
0.0
 30
0.0
 70
   128
  0
VERTEX
  5
2D3
  8
0
  6
CONTINUOUS
 62
     7
 10
2391.1396989445411
 20
3452.2361311799082
 30
0.0
  0
VERTEX
  5
2D4
  8
0
  6
CONTINUOUS
 62
     7
 10
2392.6184231261932
 20
3454.748724002221
 30
0.0
  0
VERTEX
  5
2D5
  8
0
  6
CONTINUOUS
 62
     7
 10
2394.3623805265152
 20
3457.076616931537
 30
0.0
  0
VERTEX
  5
2D6
  8
0
  6
CONTINUOUS
 62
     7
 10
2396.3461423139288
 20
3459.1858688479451
 30
0.0
  0
VERTEX
  5
2D7
  8
0
  6
CONTINUOUS
 62
     7
 10
2398.5407853345591
 20
3461.0457200294518
 30
0.0
  0
VERTEX
  5
2D8
  8
0
  6
CONTINUOUS
 62
     7
 10
2400.91430189416
 20
3462.629050362686
 30
0.0
  0
VERTEX
  5
2D9
  8
0
  6
CONTINUOUS
 62
     7
 10
2403.4320765952789
 20
3463.9127704983739
 30
0.0
  0
VERTEX
  5
2DA
  8
0
  6
CONTINUOUS
 62
     7
 10
2406.0574078778941
 20
3464.8781608527688
 30
0.0
  0
VERTEX
  5
2DB
  8
0
  6
CONTINUOUS
 62
     7
 10
2408.7519997577392
 20
3465.511143553832
 30
0.0
  0
VERTEX
  5
2DC
  8
0
  6
CONTINUOUS
 62
     7
 10
2411.4765653233248
 20
3465.8024873322029
 30
0.0
  0
VERTEX
  5
2DD
  8
0
  6
CONTINUOUS
 62
     7
 10
2414.191370628329
 20
3465.7479453569449
 30
0.0
  0
VERTEX
  5
2DE
  8
0
  6
CONTINUOUS
 62
     7
 10
2416.8568307380401
 20
3465.348314840177
 30
0.0
  0
VERTEX
  5
2DF
  8
0
  6
CONTINUOUS
 62
     7
 10
2419.4340759734828
 20
3464.609422135929
 30
0.0
  0
VERTEX
  5
2E0
  8
0
  6
CONTINUOUS
 62
     7
 10
2421.8855256061279
 20
3463.5420407837419
 30
0.0
  0
SEQEND
  5
2E1
  8
0
  6
CONTINUOUS
 62
     7
  0
POLYLINE
  5
D4
  8
0
  6
CONTINUOUS
 62
     7
 66
     1
 10
0.0
 20
0.0
 30
0.0
 70
   128
  0
VERTEX
  5
2E2
  8
0
  6
CONTINUOUS
 62
     7
 10
2399.729234896155
 20
3420.6236455327071
 30
0.0
  0
VERTEX
  5
2E3
  8
0
  6
CONTINUOUS
 62
     7
 10
2397.4393287520129
 20
3422.0039512699632
 30
0.0
  0
VERTEX
  5
2E4
  8
0
  6
CONTINUOUS
 62
     7
 10
2395.3443595986091
 20
3423.6770517861642
 30
0.0
  0
VERTEX
  5
2E5
  8
0
  6
CONTINUOUS
 62
     7
 10
2393.4748748163902
 20
3425.6185501551408
 30
0.0
  0
VERTEX
  5
2E6
  8
0
  6
CONTINUOUS
 62
     7
 10
2391.8581435303408
 20
3427.8001360332751
 30
0.0
  0
VERTEX
  5
2E7
  8
0
  6
CONTINUOUS
 62
     7
 10
2390.5177244763099
 20
3430.1899954414162
 30
0.0
  0
VERTEX
  5
2E8
  8
0
  6
CONTINUOUS
 62
     7
 10
2389.4731828789431
 20
3432.7532782888202
 30
0.0
  0
VERTEX
  5
2E9
  8
0
  6
CONTINUOUS
 62
     7
 10
2388.7397402744009
 20
3435.4526106005701
 30
0.0
  0
VERTEX
  5
2EA
  8
0
  6
CONTINUOUS
 62
     7
 10
2388.3280882458412
 20
3438.2486235087899
 30
0.0
  0
VERTEX
  5
2EB
  8
0
  6
CONTINUOUS
 62
     7
 10
2388.2442394118029
 20
3441.1005492990998
 30
0.0
  0
VERTEX
  5
2EC
  8
0
  6
CONTINUOUS
 62
     7
 10
2388.4894156675059
 20
3443.9667988306078
 30
0.0
  0
VERTEX
  5
2ED
  8
0
  6
CONTINUOUS
 62
     7
 10
2389.060033283683
 20
3446.8055743461632
 30
0.0
  0
VERTEX
  5
2EE
  8
0
  6
CONTINUOUS
 62
     7
 10
2389.947777412387
 20
3449.5754841452631
 30
0.0
  0
VERTEX
  5
2EF
  8
0
  6
CONTINUOUS
 62
     7
 10
2391.1396989445411
 20
3452.2361311799082
 30
0.0
  0
SEQEND
  5
2F0
  8
0
  6
CONTINUOUS
 62
     7
  0
POLYLINE
  5
D5
  8
0
  6
CONTINUOUS
 62
     7
 66
     1
 10
0.0
 20
0.0
 30
0.0
 70
   128
  0
VERTEX
  5
2F1
  8
0
  6
CONTINUOUS
 62
     7
 10
2421.8855256061279
 20
3463.5420407837419
 30
0.0
  0
VERTEX
  5
2F2
  8
0
  6
CONTINUOUS
 62
     7
 10
2419.4340759734828
 20
3464.609422135929
 30
0.0
  0
VERTEX
  5
2F3
  8
0
  6
CONTINUOUS
 62
     7
 10
2416.8568307380401
 20
3465.348314840177
 30
0.0
  0
VERTEX
  5
2F4
  8
0
  6
CONTINUOUS
 62
     7
 10
2414.191370628329
 20
3465.7479453569449
 30
0.0
  0
VERTEX
  5
2F5
  8
0
  6
CONTINUOUS
 62
     7
 10
2411.4765653233248
 20
3465.8024873322029
 30
0.0
  0
VERTEX
  5
2F6
  8
0
  6
CONTINUOUS
 62
     7
 10
2408.7519997577392
 20
3465.511143553832
 30
0.0
  0
VERTEX
  5
2F7
  8
0
  6
CONTINUOUS
 62
     7
 10
2406.0574078778941
 20
3464.8781608527688
 30
0.0
  0
VERTEX
  5
2F8
  8
0
  6
CONTINUOUS
 62
     7
 10
2403.4320765952789
 20
3463.9127704983739
 30
0.0
  0
VERTEX
  5
2F9
  8
0
  6
CONTINUOUS
 62
     7
 10
2400.91430189416
 20
3462.629050362686
 30
0.0
  0
VERTEX
  5
2FA
  8
0
  6
CONTINUOUS
 62
     7
 10
2398.5407853345591
 20
3461.0457200294518
 30
0.0
  0
VERTEX
  5
2FB
  8
0
  6
CONTINUOUS
 62
     7
 10
2396.3461423139288
 20
3459.1858688479451
 30
0.0
  0
VERTEX
  5
2FC
  8
0
  6
CONTINUOUS
 62
     7
 10
2394.3623805265152
 20
3457.076616931537
 30
0.0
  0
VERTEX
  5
2FD
  8
0
  6
CONTINUOUS
 62
     7
 10
2392.6184231261932
 20
3454.748724002221
 30
0.0
  0
VERTEX
  5
2FE
  8
0
  6
CONTINUOUS
 62
     7
 10
2391.1396989445411
 20
3452.2361311799082
 30
0.0
  0
VERTEX
  5
2FF
  8
0
  6
CONTINUOUS
 62
     7
 10
2389.947777412387
 20
3449.5754841452631
 30
0.0
  0
VERTEX
  5
300
  8
0
  6
CONTINUOUS
 62
     7
 10
2389.060033283683
 20
3446.8055743461632
 30
0.0
  0
VERTEX
  5
301
  8
0
  6
CONTINUOUS
 62
     7
 10
2388.4894156675059
 20
3443.9667988306078
 30
0.0
  0
VERTEX
  5
302
  8
0
  6
CONTINUOUS
 62
     7
 10
2388.2442394118029
 20
3441.1005492990998
 30
0.0
  0
VERTEX
  5
303
  8
0
  6
CONTINUOUS
 62
     7
 10
2388.3280882458412
 20
3438.2486235087899
 30
0.0
  0
VERTEX
  5
304
  8
0
  6
CONTINUOUS
 62
     7
 10
2388.7397402744009
 20
3435.4526106005701
 30
0.0
  0
VERTEX
  5
305
  8
0
  6
CONTINUOUS
 62
     7
 10
2389.4731828789431
 20
3432.7532782888202
 30
0.0
  0
VERTEX
  5
306
  8
0
  6
CONTINUOUS
 62
     7
 10
2390.5177244763099
 20
3430.1899954414162
 30
0.0
  0
VERTEX
  5
307
  8
0
  6
CONTINUOUS
 62
     7
 10
2391.8581435303408
 20
3427.8001360332751
 30
0.0
  0
VERTEX
  5
308
  8
0
  6
CONTINUOUS
 62
     7
 10
2393.4748748163902
 20
3425.6185501551408
 30
0.0
  0
VERTEX
  5
309
  8
0
  6
CONTINUOUS
 62
     7
 10
2395.3443595986091
 20
3423.6770517861642
 30
0.0
  0
VERTEX
  5
30A
  8
0
  6
CONTINUOUS
 62
     7
 10
2397.4393287520129
 20
3422.0039512699632
 30
0.0
  0
VERTEX
  5
30B
  8
0
  6
CONTINUOUS
 62
     7
 10
2399.729234896155
 20
3420.6236455327071
 30
0.0
  0
VERTEX
  5
30C
  8
0
  6
CONTINUOUS
 62
     7
 10
2399.729234896155
 20
3420.6236455327071
 30
0.0
  0
SEQEND
  5
30D
  8
0
  6
CONTINUOUS
 62
     7
  0
CIRCLE
  5
D6
  8
0
  6
CONTINUOUS
 62
     7
 10
2506.171966802618
 20
3337.1475606242811
 30
0.0
 40
10.000000000000069
  0
CIRCLE
  5
D7
  8
0
  6
CONTINUOUS
 62
     7
 10
2418.2070736899741
 20
3382.5587660661208
 30
0.0
 40
10.000000000000069
  0
CIRCLE
  5
D8
  8
0
  6
CONTINUOUS
 62
     7
 10
2463.6182791318129
 20
3470.5236591787648
 30
0.0
 40
10.000000000000069
  0
CIRCLE
  5
D9
  8
0
  6
CONTINUOUS
 62
     7
 10
2551.5831722444582
 20
3425.112453736926
 30
0.0
 40
10.000000000000069
  0
ARC
  5
DA
  8
0
  6
CONTINUOUS
 62
     7
 10
2484.8951229672161
 20
3403.8356099015232
 30
0.0
 40
85.000000000000469
 50
169.20141329277149
 51
136.1891866236769
  0
CIRCLE
  5
DB
  8
0
  6
CONTINUOUS
 62
     7
 10
2484.8951229672161
 20
3403.8356099015232
 30
0.0
 40
200.5000000000002
  0
ARC
  5
DC
  8
0
  6
CONTINUOUS
 62
     7
 10
2687.2232895014281
 20
3498.075354235606
 30
0.0
 40
30.490141966285091
 50
200.87334513535231
 51
220.2103541764327
  0
ARC
  5
DD
  8
0
  6
CONTINUOUS
 62
     7
 10
2698.6668758270239
 20
3501.3649881135689
 30
0.0
 40
42.366686868372483
 50
189.95086181698991
 51
199.5159013061627
  0
LINE
  5
DE
  8
0
  6
CONTINUOUS
 62
     7
 10
2656.9375400288841
 20
3494.0438754898769
 30
0.0
 11
2654.4506380181028
 21
3508.218892264942
 31
0.0
  0
ARC
  5
DF
  8
0
  6
CONTINUOUS
 62
     7
 10
2651.397273107571
 20
3507.683203247756
 30
0.0
 40
3.100000000000608
 50
9.9508262583006211
 51
120.9023437748986
  0
LINE
  5
E0
  8
0
  6
CONTINUOUS
 62
     7
 10
2649.8051864159461
 20
3510.3431393308879
 30
0.0
 11
2637.498644910308
 21
3502.9771554952658
 31
0.0
  0
ARC
  5
E1
  8
0
  6
CONTINUOUS
 62
     7
 10
2620.3835077887588
 20
3529.8130429278522
 30
0.0
 40
31.829114758113459
 50
271.37553974482421
 51
302.52852010560463
  0
ARC
  5
E2
  8
0
  6
CONTINUOUS
 62
     7
 10
2621.6937889414462
 20
3442.6783306857569
 30
0.0
 40
55.317466448256241
 50
90.565754071445383
 51
40.210354176437853
  0
LINE
  5
E3
  8
0
  6
CONTINUOUS
 62
     7
 10
2649.2693850617129
 20
3503.0297938471831
 30
0.0
 11
2640.6500054300409
 21
3497.870735610778
 31
0.0
  0
LINE
  5
E4
  8
0
  6
CONTINUOUS
 62
     7
 10
2651.0277965883929
 20
3493.0070567613629
 30
0.0
 11
2649.2693850617129
 21
3503.0297938471831
 31
0.0
  0
ARC
  5
E5
  8
0
  6
CONTINUOUS
 62
     7
 10
2687.223289501429
 20
3498.0753542356051
 30
0.0
 40
36.490141966285123
 50
200.76042352760609
 51
220.21035417643171
  0
ARC
  5
E6
  8
0
  6
CONTINUOUS
 62
     7
 10
2621.6937889414462
 20
3442.6783306857569
 30
0.0
 40
49.31746644825607
 50
90.520028325802897
 51
40.210354176435608
  0
ARC
  5
E7
  8
0
  6
CONTINUOUS
 62
     7
 10
2620.3835077887611
 20
3529.8130429278531
 30
0.0
 40
37.829114758113597
 50
271.30671145783401
 51
302.39398063187542
  0
LINE
  5
E8
  8
0
  6
CONTINUOUS
 62
     7
 10
2609.5248493286799
 20
3441.1584979093291
 30
0.0
 11
2612.290812454673
 21
3432.4890807008528
 31
0.0
  0
LINE
  5
E9
  8
0
  6
CONTINUOUS
 62
     7
 10
2612.290812454673
 20
3432.4890807008528
 30
0.0
 11
2610.1092973570539
 21
3431.7930660879401
 31
0.0
  0
ARC
  5
EA
  8
0
  6
CONTINUOUS
 62
     7
 10
2603.7350628006361
 20
3422.3340775678448
 30
0.0
 40
11.406284671334509
 50
56.024710566975898
 51
343.54016342639841
  0
LINE
  5
EB
  8
0
  6
CONTINUOUS
 62
     7
 10
2614.6739018375861
 20
3419.1021848519222
 30
0.0
 11
2616.0121986489021
 21
3419.5291701441788
 31
0.0
  0
LINE
  5
EC
  8
0
  6
CONTINUOUS
 62
     7
 10
2616.0121986489021
 20
3419.5291701441788
 30
0.0
 11
2619.6364888767921
 21
3408.1695772444991
 31
0.0
  0
ARC
  5
ED
  8
0
  6
CONTINUOUS
 62
     7
 10
2625.8709451226559
 20
3410.165706386771
 30
0.0
 40
6.5462184682623938
 50
197.75386753236671
 51
17.63675129388735
  0
LINE
  5
EE
  8
0
  6
CONTINUOUS
 62
     7
 10
2632.1094685569451
 20
3412.1490877404299
 30
0.0
 11
2629.7498473744108
 21
3419.5448294019488
 31
0.0
  0
LINE
  5
EF
  8
0
  6
CONTINUOUS
 62
     7
 10
2629.7498473744108
 20
3419.5448294019488
 30
0.0
 11
2649.4528928618161
 21
3419.7479061519889
 31
0.0
  0
ARC
  5
F0
  8
0
  6
CONTINUOUS
 62
     7
 10
2649.3961527503379
 20
3426.3703660445472
 30
0.0
 40
6.6227029579162942
 50
270.4908884952597
 51
90.68977638140035
  0
LINE
  5
F1
  8
0
  6
CONTINUOUS
 62
     7
 10
2649.3164248231992
 20
3432.992589079633
 30
0.0
 11
2639.4096294264509
 21
3432.8904490655459
 31
0.0
  0
LINE
  5
F2
  8
0
  6
CONTINUOUS
 62
     7
 10
2639.4096294264509
 20
3432.8904490655459
 30
0.0
 11
2648.1065431456291
 21
3440.4559697693371
 31
0.0
  0
ARC
  5
F3
  8
0
  6
CONTINUOUS
 62
     7
 10
2643.7598982404338
 20
3445.4526287621229
 30
0.0
 40
6.6226824642314828
 50
311.02034218662942
 51
126.3572717887067
  0
LINE
  5
F4
  8
0
  6
CONTINUOUS
 62
     7
 10
2639.8338497299801
 20
3450.7861141249609
 30
0.0
 11
2634.7117254357058
 21
3447.0156434660939
 31
0.0
  0
ARC
  5
F5
  8
0
  6
CONTINUOUS
 62
     7
 10
2625.7060978333488
 20
3446.4195425803191
 30
0.0
 40
9.0253359796417847
 50
197.69529995823081
 51
3.7869979613497748
  0
LINE
  5
F6
  8
0
  6
CONTINUOUS
 62
     7
 10
2617.1077828254352
 20
3443.6762473774479
 30
0.0
 11
2616.9355491022779
 21
3444.216065455058
 31
0.0
  0
ARC
  5
F7
  8
0
  6
CONTINUOUS
 62
     7
 10
2613.9822227159611
 20
3443.2738004945081
 30
0.0
 40
3.099999999999651
 50
17.695391791138011
 51
131.21473165480651
  0
ARC
  5
F8
  8
0
  6
CONTINUOUS
 62
     7
 10
2602.9426299321149
 20
3455.8776536326682
 30
0.0
 40
13.654990980647099
 50
304.6886706344182
 51
311.21481979302388
  0
ARC
  5
F9
  8
0
  6
CONTINUOUS
 62
     7
 10
2612.4781792271251
 20
3442.1007518618039
 30
0.0
 40
3.1000000000008341
 50
124.6886706344123
 51
197.69517822995761
  0
LINE
  5
FA
  8
0
  6
CONTINUOUS
 62
     7
 10
2630.152670464965
 20
3454.2709890490569
 30
0.0
 11
2632.0155981980811
 21
3448.4320355989112
 31
0.0
  0
LINE
  5
FB
  8
0
  6
CONTINUOUS
 62
     7
 10
2646.4690545420372
 20
3455.3436007088221
 30
0.0
 11
2630.152670464965
 21
3454.2709890490569
 31
0.0
  0
ARC
  5
FC
  8
0
  6
CONTINUOUS
 62
     7
 10
2646.0346300828642
 20
3461.9520190129851
 30
0.0
 40
6.6226820166402556
 50
273.7611005561177
 51
17.695178557496259
  0
LINE
  5
FD
  8
0
  6
CONTINUOUS
 62
     7
 10
2648.0114737372119
 20
3477.5444421654729
 30
0.0
 11
2652.3439714531619
 21
3463.9650027936491
 31
0.0
  0
ARC
  5
FE
  8
0
  6
CONTINUOUS
 62
     7
 10
2641.339343487406
 20
3475.4157050692852
 30
0.0
 40
7.0034879663681551
 50
17.695235794871991
 51
123.4590333324618
  0
LINE
  5
FF
  8
0
  6
CONTINUOUS
 62
     7
 10
2624.3171969275199
 20
3472.5611213332209
 30
0.0
 11
2637.4780361373382
 21
3481.2585767299811
 31
0.0
  0
LINE
  5
100
  8
0
  6
CONTINUOUS
 62
     7
 10
2622.1437731604301
 20
3479.3732616787938
 30
0.0
 11
2624.3171969275199
 21
3472.5611213332209
 31
0.0
  0
ARC
  5
101
  8
0
  6
CONTINUOUS
 62
     7
 10
2615.8324272942759
 20
3477.3665715933571
 30
0.0
 40
6.6226801025877284
 50
17.638043041816001
 51
197.75270602103009
  0
LINE
  5
102
  8
0
  6
CONTINUOUS
 62
     7
 10
2613.4201416592318
 20
3463.1391469126729
 30
0.0
 11
2609.5251099454122
 21
3475.3472549757998
 31
0.0
  0
LINE
  5
103
  8
0
  6
CONTINUOUS
 62
     7
 10
2612.0885589937889
 20
3462.7142999058751
 30
0.0
 11
2613.4201416592318
 21
3463.1391469126729
 31
0.0
  0
ARC
  5
104
  8
0
  6
CONTINUOUS
 62
     7
 10
2603.0653015188841
 20
3455.7368967683319
 30
0.0
 40
11.406284671277691
 50
37.713661155943662
 51
355.34515662710112
  0
LINE
  5
105
  8
0
  6
CONTINUOUS
 62
     7
 10
2615.9253546814639
 20
3455.2870731538319
 30
0.0
 11
2614.4339643352869
 21
3454.8112425298841
 31
0.0
  0
LINE
  5
106
  8
0
  6
CONTINUOUS
 62
     7
 10
2619.396952710601
 20
3444.4060515349888
 30
0.0
 11
2615.9253546814639
 21
3455.2870731538319
 31
0.0
  0
ARC
  5
107
  8
0
  6
CONTINUOUS
 62
     7
 10
2625.7109082056359
 20
3446.404523130383
 30
0.0
 40
6.622682440739001
 50
197.56344280497251
 51
17.82716628114159
  0
ARC
  5
108
  8
0
  6
CONTINUOUS
 62
     7
 10
2698.6668657184532
 20
3501.3650165031058
 30
0.0
 40
48.366686868372327
 50
189.95089308463579
 51
199.59914385860051
  0
LINE
  5
109
  8
0
  6
CONTINUOUS
 62
     7
 10
2421.304894409629
 20
3384.1090969478869
 30
0.0
 11
2418.4133538822848
 21
3386.0167212521819
 31
0.0
  0
LINE
  5
10A
  8
0
  6
CONTINUOUS
 62
     7
 10
2421.098610184642
 20
3380.6511427944679
 30
0.0
 11
2421.304894409629
 21
3384.1090969478869
 31
0.0
  0
LINE
  5
10B
  8
0
  6
CONTINUOUS
 62
     7
 10
2418.0007928828909
 20
3379.1008110826988
 30
0.0
 11
2421.098610184642
 21
3380.6511427944679
 31
0.0
  0
LINE
  5
10C
  8
0
  6
CONTINUOUS
 62
     7
 10
2418.4133538822848
 20
3386.0167212521819
 30
0.0
 11
2415.3155365805351
 21
3384.4663895404128
 31
0.0
  0
LINE
  5
10D
  8
0
  6
CONTINUOUS
 62
     7
 10
2415.1092598061282
 20
3381.0084353869938
 30
0.0
 11
2418.0007928828909
 21
3379.1008110826988
 31
0.0
  0
LINE
  5
10E
  8
0
  6
CONTINUOUS
 62
     7
 10
2415.3155365805351
 20
3384.4663895404128
 30
0.0
 11
2415.1092598061282
 21
3381.0084353869938
 31
0.0
  0
CIRCLE
  5
10F
  8
0
  6
CONTINUOUS
 62
     7
 10
2418.2070736899768
 20
3382.5587660661108
 30
0.0
 40
9.7500000000004405
  0
LINE
  5
110
  8
0
  6
CONTINUOUS
 62
     7
 10
2507.5818018834311
 20
3333.9833248144168
 30
0.0
 11
2509.6171906064469
 21
3336.7863971477541
 31
0.0
  0
LINE
  5
111
  8
0
  6
CONTINUOUS
 62
     7
 10
2509.6171906064469
 20
3336.7863971477541
 30
0.0
 11
2508.207354492994
 21
3339.9506289249439
 31
0.0
  0
LINE
  5
112
  8
0
  6
CONTINUOUS
 62
     7
 10
2508.207354492994
 20
3339.9506289249439
 30
0.0
 11
2504.7621315191709
 21
3340.3117958193802
 31
0.0
  0
LINE
  5
113
  8
0
  6
CONTINUOUS
 62
     7
 10
2504.7621315191709
 20
3340.3117958193802
 30
0.0
 11
2502.7267446587998
 21
3337.5087234860439
 31
0.0
  0
LINE
  5
114
  8
0
  6
CONTINUOUS
 62
     7
 10
2502.7267446587998
 20
3337.5087234860439
 30
0.0
 11
2504.136578909608
 21
3334.3444917088532
 31
0.0
  0
LINE
  5
115
  8
0
  6
CONTINUOUS
 62
     7
 10
2504.136578909608
 20
3334.3444917088532
 30
0.0
 11
2507.5818018834311
 21
3333.9833248144168
 31
0.0
  0
CIRCLE
  5
116
  8
0
  6
CONTINUOUS
 62
     7
 10
2506.171966802628
 20
3337.1475606242839
 30
0.0
 40
9.7499999999998792
  0
LINE
  5
117
  8
0
  6
CONTINUOUS
 62
     7
 10
2467.0822189967348
 20
3470.557153571227
 30
0.0
 11
2465.3212388823949
 21
3473.5402691846871
 31
0.0
  0
LINE
  5
118
  8
0
  6
CONTINUOUS
 62
     7
 10
2465.3212388823949
 20
3473.5402691846871
 30
0.0
 11
2461.8573000501119
 21
3473.5067713743229
 31
0.0
  0
LINE
  5
119
  8
0
  6
CONTINUOUS
 62
     7
 10
2461.8573000501119
 20
3473.5067713743229
 30
0.0
 11
2460.1543394695241
 21
3470.49016540108
 31
0.0
  0
LINE
  5
11A
  8
0
  6
CONTINUOUS
 62
     7
 10
2460.1543394695241
 20
3470.49016540108
 30
0.0
 11
2461.9153177212202
 21
3467.5070497876191
 31
0.0
  0
LINE
  5
11B
  8
0
  6
CONTINUOUS
 62
     7
 10
2461.9153177212202
 20
3467.5070497876191
 30
0.0
 11
2465.3792584161479
 21
3467.5405475979842
 31
0.0
  0
LINE
  5
11C
  8
0
  6
CONTINUOUS
 62
     7
 10
2465.3792584161479
 20
3467.5405475979842
 30
0.0
 11
2467.0822189967348
 21
3470.557153571227
 31
0.0
  0
CIRCLE
  5
11D
  8
0
  6
CONTINUOUS
 62
     7
 10
2463.6182791318038
 20
3470.523659178763
 30
0.0
 40
9.7499999999996234
  0
LINE
  5
11E
  8
0
  6
CONTINUOUS
 62
     7
 10
2551.2749010543539
 20
3428.5628109907889
 30
0.0
 11
2548.4409386138641
 21
3426.5706598496222
 31
0.0
  0
LINE
  5
11F
  8
0
  6
CONTINUOUS
 62
     7
 10
2548.4409386138641
 20
3426.5706598496222
 30
0.0
 11
2548.749213836642
 21
3423.1203034257678
 31
0.0
  0
LINE
  5
120
  8
0
  6
CONTINUOUS
 62
     7
 10
2548.749213836642
 20
3423.1203034257678
 30
0.0
 11
2551.8914440493309
 21
3421.6620962804341
 31
0.0
  0
LINE
  5
121
  8
0
  6
CONTINUOUS
 62
     7
 10
2551.8914440493309
 20
3421.6620962804341
 30
0.0
 11
2554.7254064898211
 21
3423.6542474216012
 31
0.0
  0
LINE
  5
122
  8
0
  6
CONTINUOUS
 62
     7
 10
2554.7254064898211
 20
3423.6542474216012
 30
0.0
 11
2554.4171312670428
 21
3427.104603845456
 31
0.0
  0
LINE
  5
123
  8
0
  6
CONTINUOUS
 62
     7
 10
2554.4171312670428
 20
3427.104603845456
 30
0.0
 11
2551.2749010543539
 21
3428.5628109907889
 31
0.0
  0
CIRCLE
  5
124
  8
0
  6
CONTINUOUS
 62
     7
 10
2551.583172244455
 20
3425.112453736936
 30
0.0
 40
9.7500000000000888
  0
ARC
  5
125
  8
0
  6
CONTINUOUS
 62
     8
 10
2484.8951229672161
 20
3403.8356099015232
 30
0.0
 40
82.000000000000114
 50
169.82358872710799
 51
135.5670111893408
  0
DIMENSION
  5
126
  8
FORMAT
  2
_D
 10
4529.8951229672148
 20
1678.835609901525
 30
0.0
 11
4529.8951229672148
 21
3213.204541940358
 31
0.0
 70
   128
  1
%%c<>
 13
2484.8951229672148
 23
5128.8356099015273
 33
0.0
 14
2484.8951229672148
 24
1678.8356099015259
 34
0.0
 50
90.000000000000185
  0
ENDSEC
  0
EOF
